app de namoro anonimo de namoro online namoro um esquizofrenico lee sung kyung namoro namoro depois dos 50 b2 agencia matrimonial tu y ella encontro selvagem assistir online preterito imperfeito de namorar perguntas para fazer ao namorado no começo do namoro música de o que e pedir um tempo no namoro presentes criativos sites de encontros para casar mensagem de namoro religioso o que fazer para um namoro da certo qual o sentido namoro bodas de conhecer contrato de namoro jurisprudência ideias de presentes para namoro anel de namoro em qual mao usar namorar policial feminina telefone para contato namoro consequencias no namoro na adolescencia 5 motivos para namorar alguem de cancer namoro longo tem direito a bens namoro em latim app internacional meme web namoro lindas mensagens de namoro recente carta de namorar homens separados com filhos dinamica sobre namoro na adolescencia indiretas para pedido de namoro excursão para solteiros 2020 agencia de matrimonio barcelona imagem de ana maria namorar a sua filha portal chrześcijański randkowy grupos de whatsapp para solteros incontri ragazze a cecina
  • 如果您觉得本站非常有看点,那么赶紧使用Ctrl+D 收藏我爱资源网吧

刺杀金正恩 The Interview 2014 WEB-DL x264 AAC MerryXmas.1080p/2.83 GB/720P/1.68 GB

高清电影 小磊 6年前 (2015-01-03) 65次浏览 已收录 0个评论 扫描二维码
本文最后更新于 2015年03月3日 16:04 可能会因为没有更新而失效。如已失效或需要修正,请及时留言!

刺杀金正恩 The Interview 2014 WEB-DL x264 AAC MerryXmas.1080p/2.83 GB/720P/1.68 GB
The Interview 2014 1080p WEB-DL x264 AAC MerryXmas

http://www.imdb.com/title/tt2788710/

Dave Skylark and producer Aaron Rapoport run the celebrity tabloid show “Skylark Tonight.” When they land an interview with a surprise fan, North Korean dictator Kim Jong-un, they are recruited by the CIA to turn their trip to Pyongyang into an assassination mission.

剧情简介

男主角DaveSkylark(詹姆斯·弗兰科饰演)是一位美国脱口秀主持,和他的制作人AaronRapoport(塞斯·罗根饰演)经营着他们非常成功的明星八卦电视秀《今夜胡闹秀》(SkylarkTonight)。当他们发现北朝鲜大独裁者金正恩正是他们节目的粉丝,于是他们决定对他进行采访,并试图成为官方授权的记者。Dave和Aaron准备前往朝鲜首都平壤,而当美国中央情报局CIA招募了他们,这使得此次平壤之行的计划有了改变:他们两个也许是你最无法想象的,也是最没能力去刺杀金正恩的人选。

Format : MPEG-4
Format profile : Base Media / Version 2
Codec ID : mp42
File size : 2.83 GiB
Duration : 1h 52mn
Overall bit rate mode : Variable
Overall bit rate : 3 611 Kbps
Encoded date : UTC 2014-12-23 01:37:54
Tagged date : UTC 2014-12-23 01:37:54

Video
ID : 1
Format : AVC
Format/Info : Advanced Video Codec
Format profile : High@L4.2
Format settings, CABAC : Yes
Format settings, ReFrames : 2 frames
Codec ID : avc1
Codec ID/Info : Advanced Video Coding
Duration : 1h 52mn
Bit rate mode : Variable
Bit rate : 3 482 Kbps
Maximum bit rate : 3 518 Kbps
Width : 1 920 pixels
Height : 1 080 pixels
Display aspect ratio : 16:9
Frame rate mode : Constant
Frame rate : 23.976 fps
Color space : YUV
Chroma subsampling : 4:2:0
Bit depth : 8 bits
Scan type : Progressive
Bits/(Pixel*Frame) : 0.070
Stream size : 2.73 GiB (96%)

Audio
ID : 2
Format : AAC
Format/Info : Advanced Audio Codec
Format profile : LC
Codec ID : 40
Duration : 1h 52mn
Source duration : 1h 52mn
Bit rate mode : Constant
Bit rate : 128 Kbps
Channel(s) : 2 channels
Channel positions : Front: L R
Sampling rate : 44.1 KHz
Compression mode : Lossy
Stream size : 101 MiB (3%)
Source stream size : 101 MiB (3%)
Language : English

1.相关下载




文件名称:刺杀金正恩 The Interview 2014 WEB-DL x264 AAC MerryXmas.1080p/2.83 GB/720P/1.68 GB

注:本站资源部分来自网络,请在下载后的24小时内删除,感谢支持!

提示:下载后请检查MD5值,欢迎捐赠本站以及广告合作!

下载地址: 百度网盘 【文件大小:分享目录】


我爱资源网 , 版权所有丨如未注明 , 均为原创丨本网站采用BY-NC-SA协议进行授权
转载请注明原文链接:刺杀金正恩 The Interview 2014 WEB-DL x264 AAC MerryXmas.1080p/2.83 GB/720P/1.68 GB
喜欢 (0)
关于作者:
我爱资源网 - 主要收集网络中各种破解软件,去广告补丁,以及精品各种精品资源,教程.
发表我的评论
取消评论

表情 贴图 加粗 删除线 居中 斜体 签到

Hi,您需要填写昵称和邮箱!

  • 昵称 (必填)
  • 邮箱 (必填)
  • 网址